Internet

YouTube testuje HD

Serwis YouTube.com to znakomite miejsce, w którym możemy oglądać naprawdę przeróżne pliki wideo. Niestety obecnie niektórzy użytkownicy coraz rzadziej zaglądają na podstrony z filmami, ponieważ oferowana tam jakość filmów jest często bardzo kiepska. YouTube zdaje sobie z tego sprawę i zamierza oferować wideo w jakości High-Definition. Obietnic było dotychczas sporo, ale teraz mamy namacalny dowód, że serwis faktycznie szykuje nam taką funkcjonalność.

Aktualnie YouTube testuje wideo w jakości HD i niektóre filmy są dostępne w jakości 720p. Co jednak istotne, typowy użytkownik serwisu nie ma do nich dostępu. Aby zobaczyć film w wysokiej jakości, trzeba zastosować pewien „trik”, o którym piszemy niżej.

Aby obejrzeć film w HD, zwyczajnie uruchamiamy go w przeglądarce internetowej. Wówczas do adresu URL dodajemy na końcu wyrażenie &fmt=22 i – jeśli mamy szczęście – obejrzymy dany film w jakości 720p. Dlaczego wspominam o szczęściu? Ponieważ obecnie tylko niektóre filmy są oferowane w HD – YouTube testuje nową funkcjonalność od kilku ostatnich miesięcy i jedynie do części filmów wprowadzono takie udogodnienie.

Dla przykładu, film dostępny pod tym adresem można obejrzeć w jakości HD. Jeśli wybierzemy tryb pełnoekranowy i będziemy patrzeć na monitor z odległości 1-1,5 m, wrażenia będą naprawdę pozytywne. Warto też zauważyć, że akurat ten film możemy oglądać w wysokiej rozdzielczości w łatwiejszy sposób – wystarczy kliknąć przycisk „oglądaj w wysokiej rozdzielczości”, znajdujący się tuż pod polem z wideo. Można więc wywnioskować, że HD zostanie udostępnione oficjalnie już wkrótce.

YouTube wyjawiło, że przygotowuje taką funkcjonalność z uwagi na swoich widzów. Niektórzy internauci mają bowiem szybkie łącza, które z powodzeniem zapewnią płynną animację strumieniowanych filmów HD. Pozostali użytkownicy będą mogli oglądać wideo w gorszej jakości lub w HD, jeśli poczekają aż film się załaduje.

Niektórzy sugerują też, że takim posunięciem YouTube stanie się poważnym rywalem szybko rozwijającego się serwisu wideo Hulu, który słynie głównie z filmów HD. Tak czy inaczej, w przyszłym roku również gigantyczny serwis YouTube powinien oferować filmy HD, co z pewnością spotka się z dużym zainteresowaniem.

Zachęcam też do dzielenia się odsyłaczami do filmów, które można obejrzeć w HD.

Komentarze

11
Zaloguj się, aby skomentować
avatar
Komentowanie dostępne jest tylko dla zarejestrowanych użytkowników serwisu.
  • avatar
    Darkeners
    0
    toż te guziki są dostępne otwarcie od paru miesięcy i HD 720 to na pewno nie jest...
    • avatar
      Szymon331
      0
      Przykładowy filmik jakoś nie szokuje rozdzielczością/jakością. Niemniej nawet przyjemny temat :) Czekam czekam na HD w youtube tylko żeby było to powszechne
      • avatar
        Konto usunięte
        0
        Filmik jest w 720p jednak nie jest skompresowany i dlatego taka a nie inna jakość
        • avatar
          Konto usunięte
          0
          Chciałem napisać JEST skompresowany
          • avatar
            Konto usunięte
            0
            Tam nawet jest guzik ogladaj w wyoskiej rozdzielczosci :)
            • avatar
              deel77
              0
              Jakość robi wrażenie. Oczywiście wysoki stopień kompresji powoduje, że widoczne są artefakty pakowania, ale w porównaniu ze standardową jakością oferowaną przez YouTube jest bardzo dobrze. Jestem ciekawy jak taki skok będzie wpływał na wydajność YouTuba.
              • avatar
                Konto usunięte
                0
                sciagnalem go na dysk i rzeczywiscie ma rozdzielczosc 720p ale slabe bitrate troche, info z programu MediaInfo:
                General
                Complete name : Where the Hell is Matt_ (2008).flv
                Format: MPEG-4
                Format profile : Base Media / Version 2
                Codec ID : mp42
                File size: 73.6 MiB
                Duration : 4mn 28s
                Overall bit rate : 2 296 Kbps
                Encoded date: UTC 2008-06-19 11:35:09
                Tagged date : UTC 2008-06-19 11:35:09

                Video
                Format: AVC
                Format/Info : Advanced Video Codec
                Format profile : Main@L5.1
                Format settings, CABAC : No
                Format settings, ReFrames : 4 frames
                Codec ID : avc1
                Codec ID/Info : Advanced Video Coding
                Duration : 4mn 28s
                Bit rate mode : Variable
                Bit rate : 2 060 Kbps
                Nominal bit rate : 2 000 Kbps
                Maximum bit rate : 11.8 Mbps
                Width : 1 280 pixels
                Height: 720 pixels
                Display aspect ratio : 16/9
                Frame rate mode: Constant
                Frame rate : 30.000 fps
                Resolution : 24 bits
                Colorimetry : 4:2:0
                Scan type: Progressive
                Bits/(Pixel*Frame): 0.075
                Stream size : 66.0 MiB (90%)
                Title : (C) 2007 Google Inc. v06.24.2007.
                Writing library: x264 core 54

                Audio
                Format: AAC
                Format/Info : Advanced Audio Codec
                Format version : Version 4
                Format profile : LC
                Format settings, SBR : No
                Codec ID : 40
                Duration : 4mn 28s
                Bit rate mode : Variable
                Bit rate : 232 Kbps
                Maximum bit rate : 256 Kbps
                Channel(s) : 2 channels
                Channel positions : L R
                Sampling rate : 44.1 KHz
                Resolution : 16 bits
                Stream size : 7.43 MiB (10%)
                Title : (C) 2007 Google Inc. v06.24.2007.
                • avatar
                  Konto usunięte
                  0
                  sorki ze nie napisalem wczesniej ale sprawdzilem i ten filmik ma wsparcie DXVA :) czyli dekodowanie odbywa sie przez karte graficzną ;) youtube szacun normalnie :)
                  • avatar
                    Konto usunięte
                    0
                    Tylko do cholery dlaczego oni nadal używają archiwalnej wersji x264!?!?! Aktualna wersja to 65 r1029!!!! Jak zwykle musza coś spieprzyć! Czy to tak trudno ściągnąć nowego .exe'ka?!?!!? No i poco nadal używają .flv zamiast .mp4?!?!!?